osu file format v14

[General]
AudioFilename: drugs are bad.mp3
AudioLeadIn: 2000
PreviewTime: 23857
Countdown: 0
SampleSet: Normal
StackLeniency: 0.3
Mode: 0
LetterboxInBreaks: 0
WidescreenStoryboard: 0

[Editor]
Bookmarks: 25249,83091,140845
DistanceSpacing: 1.5
BeatDivisor: 4
GridSize: 4
TimelineZoom: 1.5

[Metadata]
Title:Injection
TitleUnicode:Injection
Artist:Rise Against
ArtistUnicode:Rise Against
Creator:pishifat
Version:oko's Insane
Source:
Tags:the sufferer & and witness metal punk okoratu yauxo
BeatmapID:560651
BeatmapSetID:214092

[Difficulty]
HPDrainRate:6
CircleSize:4
OverallDifficulty:8
ApproachRate:9
SliderMultiplier:1.8
SliderTickRate:2

[Events]
//Background and Video events
0,0,"doggy.jpg",0,0
//Break Periods
//Storyboard Layer 0 (Background)
//Storyboard Layer 1 (Fail)
//Storyboard Layer 2 (Pass)
//Storyboard Layer 3 (Foreground)
//Storyboard Sound Samples

[TimingPoints]
0,285.714285714286,4,2,1,35,1,0
1000,-100,4,1,1,50,0,0
19571,-133.333333333333,4,3,1,40,0,0
22714,-133.333333333333,4,1,1,45,0,0
23857,-111.111111111111,4,1,1,45,0,1
35285,-100,4,1,1,45,0,0
35571,-111.111111111111,4,1,1,45,0,0
42142,-133.333333333333,4,1,1,45,0,1
46714,-90.9090909090909,4,1,1,55,0,1
55142,-90.9090909090909,4,1,1,55,0,0
55857,-90.9090909090909,4,1,1,55,0,1
65142,571.428571428571,4,1,1,40,1,0
65142,-66.6666666666667,4,1,1,40,0,0
66284,552.995391705069,4,1,1,40,1,1
66284,-66.6666666666667,4,1,1,40,0,0
67389,558.139534883721,4,1,1,40,1,0
67389,-66.6666666666667,4,1,1,40,0,0
68505,550.45871559633,4,1,1,40,1,1
68505,-66.6666666666667,4,1,1,40,0,0
69055,555.555555555556,4,1,1,40,1,1
69055,-66.6666666666667,4,1,1,40,0,1
69610,545.454545454546,4,1,1,40,1,0
69610,-66.6666666666667,4,1,1,40,0,0
70155,566.037735849057,4,1,1,40,1,1
70721,558.139534883721,4,1,1,40,1,1
70721,-66.6666666666667,4,1,1,40,0,0
71837,552.359033371692,4,1,1,40,1,0
71837,-66.6666666666667,4,1,1,40,0,0
74598,563.380281690141,4,1,1,40,1,1
75161,545.454545454546,4,1,1,40,1,1
75161,-66.6666666666667,4,1,1,40,0,0
75706,552.995391705069,4,1,1,40,1,1
76258,551.724137931035,4,1,1,40,1,0
76258,-66.6666666666667,4,1,1,40,0,0
77913,560.747663551402,4,1,1,40,1,1
77913,-66.6666666666667,4,1,1,40,0,1
78473,566.037735849057,4,1,1,40,1,0
78473,-66.6666666666667,4,1,1,40,0,0
79039,550.45871559633,4,1,1,40,1,1
79589,555.555555555556,4,1,1,40,1,1
79589,-66.6666666666667,4,1,1,40,0,0
80700,550.45871559633,4,1,1,40,1,0
80700,-66.6666666666667,4,1,1,40,0,0
82902,558.139534883721,4,3,2,50,1,0
82902,-76.9230769230769,4,3,2,50,0,0
83460,552.995391705069,4,3,2,50,1,1
83460,-76.9230769230769,4,3,2,50,0,1
84012,558.139534883721,4,3,2,50,1,1
84012,-76.9230769230769,4,3,2,50,0,0
85128,555.555555555556,4,3,2,50,1,0
85128,-76.9230769230769,4,3,2,50,0,0
86794,560.747663551402,4,3,2,50,1,1
87074,-76.9230769230769,4,3,2,50,0,1
87354,553.76095985233,4,3,2,50,1,0
87354,-76.9230769230769,4,3,2,50,0,0
91784,547.945205479452,4,3,2,50,1,0
91784,-76.9230769230769,4,3,2,50,0,0
92331,558.139534883721,4,3,2,50,1,1
92331,-76.9230769230769,4,3,2,50,0,1
92889,554.016620498615,4,3,2,50,1,1
92889,-76.9230769230769,4,3,2,50,0,0
93997,554.016620498615,4,3,2,50,1,0
93997,-76.9230769230769,4,3,2,50,0,0
96213,550.45871559633,4,3,2,50,1,0
96213,-76.9230769230769,4,3,2,50,0,0
98414,556.844547563805,4,3,2,50,1,0
98414,-76.9230769230769,4,3,2,50,0,0
100641,281.030444964871,4,1,1,45,1,0
100641,-117.647058823529,4,1,1,45,0,0
101765,285.714285714286,4,1,1,45,1,0
101765,-117.647058823529,4,1,1,45,0,0
105050,-90.9090909090909,4,1,1,55,0,1
113479,-90.9090909090909,4,1,1,55,0,0
114193,-90.9090909090909,4,1,1,55,0,1
123336,-111.111111111111,4,1,1,50,0,0
132479,-125,4,1,1,45,0,0
142907,-125,4,1,1,35,0,0
144050,-125,4,1,1,25,0,0
145193,-125,4,1,1,15,0,0
146336,-125,4,2,1,5,0,0

[Colours]
Combo1 : 135,61,92
Combo2 : 93,93,93

[HitObjects]
207,116,0,5,2,3:0:0:0:
167,280,285,1,2,3:0:0:0:
311,108,571,1,2,0:3:0:0:
80,337,857,1,8,2:1:0:0:
80,337,1000,6,0,B|121:388|197:390|241:343,1,180,4|0,0:0|0:0,0:0:0:0:
323,256,1428,2,0,B|351:231|388:225|420:237,1,90,8|0,0:0|0:0,0:0:0:0:
394,338,1714,1,0,0:0:0:0:
481,210,1857,1,0,0:0:0:0:
393,82,2000,2,0,B|333:90|281:121,1,90,8|0,0:0|0:0,0:0:0:0:
171,191,2285,6,0,B|231:183|283:152,2,90,0|0|8,0:0|0:0|0:0,0:0:0:0:
53,178,2714,1,0,0:0:0:0:
160,111,2857,1,0,0:0:0:0:
101,254,3000,1,0,0:0:0:0:
82,102,3142,1,8,0:0:0:0:
175,195,3285,6,0,B|198:220|198:220|233:213|233:213|298:238|338:183,1,180,4|0,0:0|0:0,0:0:0:0:
424,90,3714,1,8,0:0:0:0:
498,184,3857,1,0,0:0:0:0:
442,311,4000,2,0,L|415:224,1,90,,,0:0:0:0:
371,23,4285,2,0,B|408:24|438:46|454:76,1,90,8|0,0:0|0:0,0:0:0:0:
408,233,4571,6,0,B|367:242|328:225|304:195,2,90,0|0|8,0:0|0:0|0:0,0:0:0:0:
339,85,5000,1,0,0:0:0:0:
240,115,5142,1,0,0:0:0:0:
156,53,5285,1,0,0:0:0:0:
58,87,5428,1,8,0:0:0:0:
264,19,5571,6,0,B|239:49|239:49|250:85|250:85|234:114|234:155|261:185,1,180,4|0,0:0|0:0,0:0:0:0:
336,300,6000,1,8,0:0:0:0:
318,128,6142,1,0,0:0:0:0:
168,172,6285,2,0,B|156:206|132:232|103:248,1,90,0|0,0:0|0:0,0:0:0:0:
89,74,6571,2,0,B|58:91|23:96|-9:91,1,90,8|0,0:0|0:0,0:0:0:0:
180,43,6857,6,0,L|257:129,1,90,0|0,0:0|0:0,0:0:0:0:
261,266,7142,1,8,0:0:0:0:
183,216,7285,1,0,0:0:0:0:
266,178,7428,1,0,0:0:0:0:
255,356,7571,1,0,0:0:0:0:
342,248,7714,1,8,0:0:0:0:
178,307,7857,6,0,B|123:304|80:258|80:201|109:162,1,180,4|0,0:0|0:0,0:0:0:0:
184,47,8285,2,0,L|261:133,1,90,8|0,0:0|0:0,0:0:0:0:
346,244,8571,1,0,0:0:0:0:
355,96,8714,1,0,0:0:0:0:
270,182,8857,2,0,B|239:194|206:184|186:161,1,90,8|0,0:0|0:0,0:0:0:0:
327,28,9142,6,0,B|358:16|391:26|411:49,2,90,0|0|8,0:0|0:0|0:0,0:0:0:0:
244,116,9571,1,0,0:0:0:0:
180,43,9714,2,0,L|68:75,1,90,8|0,0:0|0:0,0:0:0:0:
63,237,10000,1,8,0:0:0:0:
248,112,10142,6,0,B|297:98|348:132|354:189|327:226,1,180,4|0,0:0|0:0,0:0:0:0:
247,311,10571,1,8,0:0:0:0:
353,296,10714,1,0,0:0:0:0:
239,221,10857,2,0,B|201:224|172:250|162:283,1,90,0|0,0:0|0:0,0:0:0:0:
113,95,11142,2,0,B|151:92|180:66|190:33,1,90,8|0,0:0|0:0,0:0:0:0:
32,78,11428,5,0,0:0:0:0:
74,181,11571,1,0,0:0:0:0:
57,291,11714,2,0,B|45:343|57:394,1,90,8|0,0:0|0:0,0:0:0:0:
153,246,12000,1,0,0:0:0:0:
243,225,12142,1,0,0:0:0:0:
214,310,12285,1,8,0:0:0:0:
187,155,12428,6,0,B|206:128|206:128|235:143|235:143|265:138|323:158|328:224,1,180,4|0,0:0|0:0,0:0:0:0:
349,311,12857,2,0,B|381:303|405:282|419:256,1,90,8|0,0:0|0:0,0:0:0:0:
381,142,13142,1,0,0:0:0:0:
492,118,13285,1,0,0:0:0:0:
414,40,13428,2,0,B|373:23|330:22|291:32,1,90,8|0,0:0|0:0,0:0:0:0:
191,159,13714,6,0,B|209:193|212:230|204:264,2,90,0|0|8,0:0|0:0|0:0,0:0:0:0:
74,114,14142,1,0,0:0:0:0:
202,61,14285,2,0,B|247:67|247:67|308:102,2,90,0|0|8,0:0|0:0|0:0,0:0:0:0:
78,118,14714,6,0,B|60:153|60:153|74:184|74:184|54:238|75:288,1,180,4|0,0:0|0:0,0:0:0:0:
165,365,15142,2,0,B|205:345|205:345|253:353,1,90,8|0,0:0|0:0,0:0:0:0:
356,369,15428,1,0,0:0:0:0:
371,240,15571,1,0,0:0:0:0:
448,337,15714,1,8,0:0:0:0:
448,337,15857,1,0,0:0:0:0:
375,244,16000,6,0,B|357:213|352:179|358:147,2,90,0|0|8,0:0|0:0|0:0,0:0:0:0:
452,341,16428,1,0,0:0:0:0:
461,234,16571,1,0,0:0:0:0:
436,132,16714,1,0,0:0:0:0:
282,198,16857,1,8,0:0:0:0:
267,87,17000,6,0,B|331:63|331:63|374:66|374:66|447:38,1,180,4|0,0:0|0:0,0:0:0:0:
286,202,17428,2,0,B|250:215|212:206|185:182,1,90,8|0,0:0|0:0,0:0:0:0:
106,56,17714,2,0,L|208:85,1,90,0|0,0:0|0:0,0:0:0:0:
289,302,18000,2,0,L|202:277,1,90,8|0,0:0|0:0,0:0:0:0:
77,131,18285,5,0,0:0:0:0:
95,229,18428,1,4,0:3:0:0:
93,262,18500,1,0,0:0:0:0:
81,294,18571,1,8,0:3:0:0:
23,210,18714,1,8,0:3:0:0:
81,135,18857,1,4,0:3:0:0:
166,188,19000,1,4,0:3:0:0:
250,130,19142,1,4,0:3:0:0:
344,165,19285,1,4,0:0:0:0:
348,169,19571,6,0,B|358:194|357:220|348:243,1,67.5000025749208,0|0,0:0|0:0,0:0:0:0:
328,345,20000,2,0,B|353:352|379:348|399:336,1,67.5000025749208,0|0,0:0|0:0,0:0:0:0:
459,254,20285,2,0,B|480:272|492:296|496:321,1,67.5000025749208,0|0,0:0|0:0,0:0:0:0:
257,236,20714,6,0,B|251:209|257:183|270:162,1,67.5000025749208,0|0,0:0|0:0,0:0:0:0:
207,72,21142,2,0,L|133:86,1,67.5000025749208,0|0,0:0|0:0,0:0:0:0:
276,19,21428,2,0,L|342:6,1,67.5000025749208,0|0,0:0|0:0,0:0:0:0:
162,8,21857,6,0,L|88:22,1,67.5000025749208,0|0,0:0|0:0,0:0:0:0:
44,128,22285,2,0,B|33:151|31:176|37:198,2,67.5000025749208,0|0|0,0:0|0:0|0:0,0:0:0:0:
136,87,22714,5,0,0:1:0:0:
200,144,22857,1,8,0:0:0:0:
117,171,23000,1,0,0:0:0:0:
140,91,23142,1,8,0:3:0:0:
229,170,23285,1,4,0:3:0:0:
113,208,23428,1,8,0:0:0:0:
48,124,23571,1,8,0:3:0:0:
226,66,23714,1,4,0:3:0:0:
104,284,23857,6,0,B|111:319|141:342|173:343,1,80.9999975280763,4|0,0:0|0:0,0:0:0:0:
262,287,24142,1,0,0:0:0:0:
371,242,24285,2,0,B|404:245|429:271|432:302,1,80.9999975280763,8|0,0:0|0:0,0:0:0:0:
336,376,24571,1,0,0:0:0:0:
258,291,24714,2,0,L|274:184,1,80.9999975280763,0|8,0:0|0:0,0:0:0:0:
240,66,25000,6,0,B|234:113|234:113|204:132|204:132|188:234,1,161.999995056153,0|0,0:0|0:0,0:0:0:0:
96,108,25428,2,0,L|179:60,1,80.9999975280763,8|0,0:0|0:0,0:0:0:0:
344,138,25714,2,0,L|273:178,1,80.9999975280763,0|0,0:0|0:0,0:0:0:0:
132,183,26000,1,8,0:0:0:0:
150,11,26142,6,0,B|207:36|231:104|202:157,1,161.999995056153,0|0,0:0|0:0,0:0:0:0:
62,245,26571,2,0,B|34:222|30:182|51:154,1,80.9999975280763,8|0,0:0|0:0,0:0:0:0:
154,15,26857,1,0,0:0:0:0:
92,111,27000,1,0,0:0:0:0:
52,16,27142,1,8,0:0:0:0:
197,106,27285,6,0,B|259:127|324:113|370:75,1,161.999995056153,0|0,0:0|0:0,0:0:0:0:
447,6,27714,2,0,B|470:28|479:58|476:87,1,80.9999975280763,8|0,0:0|0:0,0:0:0:0:
434,202,28000,1,0,0:0:0:0:
335,178,28142,1,0,0:0:0:0:
269,271,28285,1,8,0:0:0:0:
259,153,28428,6,0,B|273:109|318:85|364:93|392:122,1,161.999995056153,0|0,0:0|0:0,0:0:0:0:
273,275,28857,1,8,0:0:0:0:
163,208,29000,2,0,B|151:179|150:149|158:121,1,80.9999975280763,0|0,0:0|0:0,0:0:0:0:
89,293,29285,1,0,0:0:0:0:
89,293,29428,1,8,0:0:0:0:
64,152,29571,6,0,B|54:105|77:58|119:35|161:37,1,161.999995056153,0|0,0:0|0:0,0:0:0:0:
263,55,30000,1,8,0:0:0:0:
250,179,30142,2,0,L|165:210,1,80.9999975280763,0|0,0:0|0:0,0:0:0:0:
267,59,30428,2,0,B|298:58|325:74|339:99,1,80.9999975280763,0|8,0:0|0:0,0:0:0:0:
286,311,30714,6,0,B|256:297|223:307|204:331,1,80.9999975280763,0|0,0:0|0:0,0:0:0:0:
262,179,31000,2,0,L|347:210,1,80.9999975280763,0|8,0:0|0:0,0:0:0:0:
213,330,31285,2,0,B|182:329|157:307|149:280,1,80.9999975280763,0|0,0:0|0:0,0:0:0:0:
143,148,31571,1,0,0:0:0:0:
59,233,31714,1,8,0:0:0:0:
51,100,31857,6,0,L|126:30,1,80.9999975280763,0|0,0:0|0:0,0:0:0:0:
148,153,32142,1,8,0:0:0:0:
150,183,32214,1,0,0:0:0:0:
147,213,32285,1,8,0:0:0:0:
55,229,32428,1,8,0:0:0:0:
152,157,32571,1,8,0:0:0:0:
233,224,32714,1,8,0:3:0:0:
253,120,32857,1,4,0:3:0:0:
150,292,33000,6,0,B|181:327|230:336|272:319|297:287,1,161.999995056153,4|0,0:0|0:0,0:0:0:0:
361,177,33428,1,8,0:0:0:0:
249,124,33571,2,0,B|218:121|189:129|165:144,1,80.9999975280763,0|0,0:0|0:0,0:0:0:0:
59,233,33857,1,0,0:0:0:0:
72,96,34000,1,8,0:0:0:0:
141,219,34142,6,0,B|188:217|216:248|221:281|221:281|255:263|278:269,1,161.999995056153,0|0,0:0|0:0,0:0:0:0:
240,365,34571,2,0,B|208:376|175:364|156:340,1,80.9999975280763,8|0,0:0|0:0,0:0:0:0:
273,272,34857,1,0,0:0:0:0:
361,253,35000,1,0,0:0:0:0:
329,343,35142,1,8,0:0:0:0:
303,176,35285,6,0,B|345:120|345:120|385:99|385:99|427:47,1,180,0|0,0:2|0:0,0:0:0:0:
437,165,35714,1,8,0:0:0:0:
336,42,35857,2,0,L|239:93,1,80.9999975280763,0|0,0:0|0:0,0:0:0:0:
135,252,36142,2,0,L|212:214,1,80.9999975280763,0|8,0:0|0:0,0:0:0:0:
441,169,36428,6,0,B|454:228|414:284|357:295,1,161.999995056153,0|0,0:0|0:0,0:0:0:0:
194,287,36857,2,0,B|190:252|203:220|226:198,1,80.9999975280763,8|0,0:0|0:0,0:0:0:0:
282,105,37142,1,0,0:0:0:0:
369,158,37285,1,0,0:0:0:0:
343,42,37428,1,0,0:0:0:0:
373,162,37571,6,0,L|206:128,1,161.999995056153,0|0,0:0|0:0,0:0:0:0:
150,24,38000,1,8,0:0:0:0:
150,24,38142,2,0,L|259:18,1,80.9999975280763,,,0:0:0:0:
377,166,38428,2,0,B|382:199|377:232|365:260,1,80.9999975280763,0|8,0:0|0:0,0:0:0:0:
241,375,38714,6,0,B|230:308|240:243|266:187,1,161.999995056153,,,0:0:0:0:
402,91,39142,2,0,B|437:102|458:135|456:168,1,80.9999975280763,8|0,0:0|0:0,0:0:0:0:
304,135,39428,1,0,0:0:0:0:
236,82,39571,1,0,0:0:0:0:
320,42,39714,1,8,0:0:0:0:
225,165,39857,5,0,0:0:0:0:
157,102,40000,2,0,B|149:68|163:35|189:17,1,80.9999975280763,0|0,0:0|0:0,0:0:0:0:
324,46,40285,2,0,B|342:104|323:165|282:202,1,161.999995056153,8|0,0:0|0:0,0:0:0:0:
140,188,40714,1,0,0:0:0:0:
88,65,40857,1,8,0:0:0:0:
328,50,41000,6,0,L|418:70,1,80.9999975280763,4|0,0:0|0:0,0:0:0:0:
464,294,41285,2,0,L|381:275,1,80.9999975280763,0|8,0:0|0:0,0:0:0:0:
234,102,41571,2,0,L|323:121,1,80.9999975280763,,,0:0:0:0:
295,263,41857,1,0,0:0:0:0:
202,323,42000,1,8,0:0:0:0:
268,194,42142,6,0,B|304:180|344:193|365:225|367:258,1,135.000005149842,4|0,0:0|0:0,0:0:0:0:
206,327,42571,1,8,0:0:0:0:
210,331,42857,6,0,B|189:310|158:305|132:315,1,67.5000025749208,8|0,0:3|0:0,0:0:0:0:
62,329,43142,1,8,0:0:0:0:
102,196,43285,2,0,B|156:189|156:189|181:196|181:196|240:188,1,135.000005149842,8|0,0:3|0:0,0:0:0:0:
66,333,43714,1,8,0:0:0:0:
70,337,44000,6,0,B|71:297|56:261,1,67.5000025749208,8|0,0:3|0:0,0:0:0:0:
25,171,44285,1,8,0:0:0:0:
94,81,44428,2,0,B|141:69|141:69|175:72|175:72|234:56,1,135.000005149842,4|0,0:0|0:0,0:0:0:0:
29,175,44857,1,8,0:0:0:0:
33,179,45142,6,0,B|62:188|91:183|114:168,1,67.5000025749208,0|0,0:0|0:0,0:0:0:0:
275,143,45428,1,8,0:0:0:0:
334,310,45571,1,0,0:0:0:0:
176,236,45714,1,8,0:0:0:0:
189,205,45785,1,0,0:0:0:0:
212,180,45857,1,0,0:0:0:0:
241,164,45928,1,0,0:0:0:0:
275,159,46000,5,8,0:0:0:0:
383,270,46142,1,8,0:0:0:0:
273,258,46285,1,8,0:0:0:0:
391,165,46428,1,8,0:3:0:0:
308,347,46571,1,4,0:3:0:0:
340,89,46714,6,0,B|362:78|362:78|386:90|386:90|440:91|470:133|468:161|459:195,1,198.000006042481,4|0,0:0|0:0,0:0:0:0:
277,262,47142,2,0,B|268:222|295:184|334:178,1,99.0000030212403,8|0,0:0|0:0,0:0:0:0:
387,274,47428,1,0,0:0:0:0:
312,351,47571,1,0,0:0:0:0:
206,332,47714,1,8,0:0:0:0:
172,225,47857,6,0,B|176:186|206:157|241:149,1,99.0000030212403,0|0,0:0|0:0,0:0:0:0:
210,336,48142,1,0,0:0:0:0:
67,319,48285,2,0,B|54:281|54:281|69:182,1,99.0000030212403,8|0,0:0|0:0,0:0:0:0:
155,22,48571,1,0,0:0:0:0:
201,173,48714,1,0,0:0:0:0:
84,50,48857,1,8,0:0:0:0:
277,12,49000,6,0,B|281:63|253:108|253:108|304:131|328:96|365:130,1,198.000006042481,4|0,0:0|0:0,0:0:0:0:
163,90,49428,2,0,B|157:128|173:163|200:185,1,99.0000030212403,8|0,0:0|0:0,0:0:0:0:
293,280,49714,2,0,B|298:234|321:195|353:168,1,99.0000030212403,0|0,0:0|0:0,0:0:0:0:
469,125,50000,1,8,0:0:0:0:
446,242,50142,1,0,0:0:0:0:
336,194,50285,5,0,0:0:0:0:
200,261,50428,2,0,B|172:233|166:192|179:159,1,99.0000030212403,0|8,0:0|0:0,0:0:0:0:
262,194,50714,1,0,0:0:0:0:
106,251,50857,1,0,0:0:0:0:
234,106,51000,1,0,0:0:0:0:
285,285,51142,1,8,0:0:0:0:
80,163,51285,6,0,B|22:180|-9:244|14:305|60:332,1,198.000006042481,4|0,0:0|0:0,0:0:0:0:
135,356,51714,1,8,0:0:0:0:
144,363,52000,1,0,0:0:0:0:
100,244,52142,1,0,0:0:0:0:
199,285,52285,2,0,B|235:301|235:301|248:321|248:321|313:351|313:351|336:349|336:349|380:369,1,198.000006042481,8|0,0:0|0:0,0:0:0:0:
439,294,52714,5,0,0:0:0:0:
325,242,52857,2,0,B|305:238|285:242|285:242|225:216,1,99.0000030212403,8|0,0:0|0:0,0:0:0:0:
164,103,53142,1,0,0:0:0:0:
247,96,53285,1,0,0:0:0:0:
166,187,53428,1,8,0:0:0:0:
189,23,53571,6,0,B|208:16|208:16|221:28|221:28|253:15|296:26|321:56|323:91|316:116,1,198.000006042481,4|0,0:0|0:0,0:0:0:0:
270,203,54000,1,8,0:0:0:0:
261,211,54285,1,0,0:0:0:0:
251,92,54428,1,0,0:0:0:0:
352,189,54571,2,0,B|364:227|350:267|321:290,1,99.0000030212403,8|0,0:0|0:0,0:0:0:0:
255,84,54857,5,0,0:0:0:0:
257,215,55000,1,0,0:0:0:0:
345,105,55142,2,0,B|392:101|432:138|433:184,1,99.0000030212403,8|0,0:0|0:0,0:0:0:0:
285,323,55428,1,8,0:3:0:0:
246,98,55571,1,4,0:3:0:0:
369,291,55714,1,8,0:0:0:0:
107,220,55857,6,0,B|149:206|149:206|196:212|196:212|248:198|248:198|308:208,1,198.000006042481,4|0,0:0|0:0,0:0:0:0:
289,327,56285,2,0,L|185:309,1,99.0000030212403,8|0,0:0|0:0,0:0:0:0:
303,211,56571,1,0,0:0:0:0:
429,165,56714,1,0,0:0:0:0:
341,108,56857,1,8,0:0:0:0:
411,273,57000,6,0,B|451:279|488:262|512:233,2,99.0000030212403,0|0|0,0:0|0:0|0:0,0:0:0:0:
299,215,57428,2,0,B|266:200|230:207|203:227,1,99.0000030212403,8|0,0:0|0:0,0:0:0:0:
119,308,57714,1,0,0:0:0:0:
104,136,57857,1,0,0:0:0:0:
32,240,58000,1,8,0:0:0:0:
52,68,58142,6,0,B|85:43|131:43|165:77|165:77|201:67|201:67|237:90,1,198.000006042481,4|0,0:0|0:0,0:0:0:0:
379,260,58571,2,0,B|359:290|327:306|295:310,1,99.0000030212403,8|0,0:0|0:0,0:0:0:0:
215,205,58857,1,0,0:0:0:0:
123,312,59000,1,0,0:0:0:0:
117,151,59142,2,0,B|138:122|168:105|200:100,1,99.0000030212403,8|0,0:0|0:0,0:0:0:0:
333,138,59428,6,0,B|307:166|307:166|301:190|301:190|269:235,2,99.0000030212403,0|0|8,0:0|0:0|0:0,0:0:0:0:
481,110,59857,1,0,0:0:0:0:
344,46,60000,1,0,0:0:0:0:
417,178,60142,1,0,0:0:0:0:
436,28,60285,1,8,0:0:0:0:
453,261,60428,6,0,B|436:320|374:354|312:338|278:296,1,198.000006042481,4|0,0:0|0:0,0:0:0:0:
218,224,60857,1,8,0:0:0:0:
209,232,61142,1,0,0:0:0:0:
300,169,61285,1,0,0:0:0:0:
116,289,61428,2,0,B|95:298|62:304|33:285|25:257|25:257|79:224|93:159,1,198.000006042481,8|0,0:0|0:0,0:0:0:0:
93,81,61857,5,0,0:0:0:0:
214,126,62000,2,0,B|222:178|218:232,1,99.0000030212403,8|0,0:0|0:0,0:0:0:0:
179,361,62285,1,0,0:0:0:0:
120,293,62428,1,0,0:0:0:0:
259,306,62571,1,8,0:0:0:0:
143,199,62714,6,0,B|122:219|122:219|89:223|89:223|50:249|26:300|75:361,1,198.000006042481,4|0,0:0|0:0,0:0:0:0:
193,349,63142,1,8,0:0:0:0:
184,357,63428,1,0,0:0:0:0:
261,219,63571,1,0,0:0:0:0:
344,349,63714,2,0,B|381:316|381:316|406:274,1,99.0000030212403,8|0,0:0|0:0,0:0:0:0:
197,345,64000,5,0,0:0:0:0:
265,215,64142,1,8,0:0:0:0:
295,195,64214,1,0,0:0:0:0:
332,195,64285,1,8,0:0:0:0:
264,302,64428,1,8,0:0:0:0:
237,143,64571,1,8,0:0:0:0:
343,105,64714,2,0,B|379:106|409:129|421:160,2,99.0000030212403,8|4|4,0:3|0:3|0:3,0:0:0:0:
241,147,65142,5,4,0:0:0:0:
133,320,65427,2,0,B|157:323|178:333|193:349,1,67.5000025749208,,,0:0:0:0:
30,322,65713,1,8,0:0:0:0:
127,161,65999,1,0,0:0:0:0:
293,258,66284,6,0,B|335:267|377:232|371:180|338:157,1,135.000005149842,,,0:0:0:0:
226,301,66836,1,8,0:0:0:0:
123,157,67113,1,0,0:0:0:0:
230,305,67389,6,0,B|269:346|330:350|373:320,1,135.000005149842,,,0:0:0:0:
426,280,67807,1,0,0:0:0:0:
353,235,67947,1,8,0:0:0:0:
128,316,68226,1,0,0:0:0:0:
312,125,68505,6,0,B|362:109|414:132|439:175,1,135.000005149842,,,0:0:0:0:
191,365,69055,2,0,B|141:381|89:358|64:315,1,135.000005149842,8|8,0:0|0:3,0:0:0:0:
33,243,69471,1,8,0:3:0:0:
115,207,69610,6,0,B|135:155|126:100|97:57,1,135.000005149842,4|0,0:0|0:0,0:0:0:0:
22,81,70019,1,0,0:0:0:0:
60,3,70155,1,8,0:0:0:0:
214,180,70438,1,0,0:0:0:0:
368,26,70721,6,0,B|425:27|469:73|469:127,1,135.000005149842,,,0:0:0:0:
360,283,71279,1,8,0:0:0:0:
210,176,71558,1,0,0:0:0:0:
385,191,71837,6,0,B|423:206|452:235|454:287|454:287|487:314|489:354,1,202.500007724762,,,0:0:0:0:
388,368,72389,1,8,0:0:0:0:
232,199,72665,6,0,B|195:174|135:183|135:183|106:221,1,135.000005149842,,,0:0:0:0:
39,333,73217,1,0,0:0:0:0:
186,48,73494,2,0,L|258:54,1,67.5000025749208,8|0,0:0|0:0,0:0:0:0:
250,129,73770,2,0,L|322:135,1,67.5000025749208,8|0,0:0|0:0,0:0:0:0:
399,185,74046,6,0,B|376:231|319:246|276:219,1,135.000005149842,4|0,0:0|0:0,0:0:0:0:
207,193,74460,1,0,0:0:0:0:
209,273,74598,1,8,0:0:0:0:
201,52,74879,1,0,0:0:0:0:
211,354,75161,6,0,B|252:357|288:331|300:291|290:257,1,135.000005149842,,,0:0:0:0:
137,315,75706,1,8,0:0:0:0:
212,197,75982,1,0,0:0:0:0:
74,216,76258,6,0,B|81:163|115:121|159:99,1,135.000005149842,,,0:0:0:0:
225,118,76671,1,0,0:0:0:0:
298,86,76809,1,8,0:0:0:0:
123,40,77085,1,0,0:0:0:0:
276,6,77361,6,0,B|324:-8|374:23|383:72,1,135.000005149842,,,0:0:0:0:
228,227,77913,2,0,B|179:240|131:208|121:161,1,135.000005149842,8|8,0:0|0:3,0:0:0:0:
117,82,78333,1,8,0:3:0:0:
198,110,78473,6,0,B|252:130|309:126|358:105,1,135.000005149842,4|0,0:0|0:0,0:0:0:0:
146,12,79039,1,8,0:0:0:0:
120,156,79314,1,0,0:0:0:0:
292,39,79589,6,0,B|343:22|396:27|441:47,1,135.000005149842,,,0:0:0:0:
292,134,80144,1,8,0:0:0:0:
127,169,80422,1,0,0:0:0:0:
296,138,80700,6,0,B|334:148|356:188|345:229|316:249,1,135.000005149842,,,0:0:0:0:
257,301,81112,1,0,0:0:0:0:
183,268,81250,1,8,0:0:0:0:
301,142,81525,1,0,0:0:0:0:
189,353,81800,1,0,0:0:0:0:
185,111,82076,6,0,B|190:79|206:52|228:33,1,67.5000025749208,,,0:0:0:0:
293,5,82351,1,8,0:0:0:0:
249,216,82626,1,8,0:0:0:0:
94,127,82902,6,0,B|70:125|47:131|28:142,1,58.4999973220826,2|0,0:0|0:0,0:0:0:0:
23,217,83181,1,0,0:0:0:0:
81,275,83320,1,0,0:0:0:0:
142,223,83460,2,0,B|151:194|171:171|195:158,2,58.4999973220826,8|0|0,0:0|0:0|0:0,0:0:0:0:
166,300,83874,1,0,0:0:0:0:
231,249,84012,6,0,B|253:241|277:246|294:259,1,58.4999973220826,2|0,0:0|0:0,0:0:0:0:
332,323,84291,1,0,0:0:0:0:
406,289,84430,1,0,0:0:0:0:
341,203,84570,1,8,0:0:0:0:
398,374,84709,1,0,0:0:0:0:
470,336,84849,2,0,B|484:314|487:289|481:266,1,58.4999973220826,,,0:0:0:0:
467,199,85128,6,0,L|406:219,1,58.4999973220826,2|0,0:0|0:0,0:0:0:0:
291,168,85405,2,0,L|346:149,1,58.4999973220826,,,0:0:0:0:
294,254,85683,1,8,0:0:0:0:
222,214,85822,1,0,0:0:0:0:
227,295,85961,2,0,B|233:320|229:345|219:367,1,58.4999973220826,,,0:0:0:0:
150,318,86239,6,0,B|144:293|148:268|158:246,1,58.4999973220826,2|0,0:0|0:0,0:0:0:0:
218,210,86516,1,0,0:0:0:0:
169,144,86655,1,0,0:0:0:0:
231,91,86794,1,8,0:0:0:0:
107,191,86934,1,0,0:0:0:0:
170,45,87074,2,0,B|181:24|204:13|226:17,1,58.4999973220826,0|0,0:3|0:3,0:0:0:0:
310,46,87354,6,0,L|304:106,2,58.4999973220826,2|0|0,0:0|0:0|0:0,0:0:0:0:
392,25,87769,1,0,0:0:0:0:
392,25,87907,2,0,B|417:33|436:49|447:70,1,58.4999973220826,8|0,0:0|0:0,0:0:0:0:
447,140,88184,2,0,B|421:135|397:144|380:161,1,58.4999973220826,0|0,0:0|0:0,0:0:0:0:
347,221,88461,6,0,L|415:225,1,58.4999973220826,2|0,0:0|0:0,0:0:0:0:
449,293,88738,1,0,0:0:0:0:
384,343,88876,1,0,0:0:0:0:
309,308,89015,2,0,B|283:296|266:273|260:248,1,58.4999973220826,8|0,0:0|0:0,0:0:0:0:
225,197,89292,2,0,B|200:210|173:214|148:211,1,58.4999973220826,0|0,0:0|0:0,0:0:0:0:
87,223,89569,6,0,B|96:251|92:279|81:303,1,58.4999973220826,2|0,0:0|0:0,0:0:0:0:
13,247,89845,2,0,L|10:174,2,58.4999973220826,0|0|8,0:0|0:0|0:0,0:0:0:0:
34,326,90261,1,0,0:0:0:0:
110,355,90399,2,0,B|135:357|157:345|169:326,1,58.4999973220826,0|0,0:0|0:0,0:0:0:0:
189,256,90676,6,0,L|248:254,1,58.4999973220826,2|0,0:0|0:0,0:0:0:0:
285,326,90953,2,0,B|313:315|330:288|330:261,1,58.4999973220826,0|0,0:0|0:0,0:0:0:0:
343,205,91230,1,8,0:0:0:0:
273,160,91368,1,0,0:0:0:0:
418,171,91507,1,0,0:3:0:0:
268,241,91645,1,0,0:3:0:0:
352,119,91784,6,0,B|367:99|389:88|412:88,2,58.4999973220826,6|0|0,0:0|0:0|0:0,0:0:0:0:
273,160,92194,1,0,0:0:0:0:
273,160,92331,2,0,B|251:172|226:178|203:177,1,58.4999973220826,8|0,0:0|0:0,0:0:0:0:
165,112,92610,2,0,B|143:112|122:118|104:128,1,58.4999973220826,,,0:0:0:0:
64,195,92889,6,0,L|90:261,2,58.4999973220826,2|0|0,0:0|0:0|0:0,0:0:0:0:
40,116,93304,1,0,0:0:0:0:
80,44,93443,2,0,B|104:28|132:24|157:30,1,58.4999973220826,8|0,0:0|0:0,0:0:0:0:
211,58,93720,1,0,0:0:0:0:
165,126,93858,1,0,0:0:0:0:
281,91,93997,6,0,B|303:86|324:94|338:108,1,58.4999973220826,2|0,0:0|0:0,0:0:0:0:
334,187,94274,2,0,L|407:208,1,58.4999973220826,0|0,0:0|0:0,0:0:0:0:
454,150,94551,1,8,0:0:0:0:
413,78,94689,1,0,0:0:0:0:
349,262,94828,2,0,B|325:269|301:262|285:246,1,58.4999973220826,0|0,0:0|0:0,0:0:0:0:
227,202,95105,6,0,B|203:200|181:206|163:218,1,58.4999973220826,2|0,0:0|0:0,0:0:0:0:
120,279,95382,2,0,L|51:309,1,58.4999973220826,0|0,0:0|0:0,0:0:0:0:
55,208,95659,1,8,0:0:0:0:
119,151,95797,1,0,0:0:0:0:
36,117,95936,1,0,0:3:0:0:
170,79,96074,1,0,0:3:0:0:
56,39,96213,6,0,B|35:33|13:36|-4:46,1,58.4999973220826,2|0,0:0|0:0,0:0:0:0:
40,121,96488,2,0,B|45:143|43:165|36:185,1,58.4999973220826,0|0,0:0|0:0,0:0:0:0:
38,260,96763,2,0,B|61:263|82:253|95:237,1,58.4999973220826,8|0,0:0|0:0,0:0:0:0:
159,195,97038,2,0,L|195:252,1,58.4999973220826,0|0,0:0|0:0,0:0:0:0:
216,322,97313,6,0,B|243:318|262:295|263:270,1,58.4999973220826,2|0,0:0|0:0,0:0:0:0:
292,211,97589,2,0,L|368:218,1,58.4999973220826,0|0,0:0|0:0,0:0:0:0:
407,275,97864,1,8,0:0:0:0:
329,300,98001,1,0,0:0:0:0:
431,181,98139,1,0,0:0:0:0:
396,360,98277,1,0,0:0:0:0:
396,360,98414,6,0,B|368:352|341:354|317:365,1,58.4999973220826,2|0,0:0|0:0,0:0:0:0:
256,368,98692,2,0,B|229:363|210:341|206:316,1,58.4999973220826,0|0,0:0|0:0,0:0:0:0:
210,250,98970,2,0,B|193:231|172:218|149:212,1,58.4999973220826,8|0,0:0|0:0,0:0:0:0:
81,203,99249,2,0,L|90:273,1,58.4999973220826,0|0,0:0|0:0,0:0:0:0:
12,291,99527,6,0,L|4:232,2,58.4999973220826,2|0|0,0:0|0:0|0:0,0:0:0:0:
39,368,99945,1,0,0:0:0:0:
98,311,100084,2,0,B|119:296|144:291|167:295,1,58.4999973220826,8|0,0:0|0:0,0:0:0:0:
234,307,100362,1,0,0:0:0:0:
197,380,100502,1,0,0:0:0:0:
160,221,100641,6,0,B|195:212|229:214|260:226,1,76.5000014591217,8|0,0:0|0:0,0:0:0:0:
352,353,100922,2,0,L|370:262,1,76.5000014591217,8|0,0:0|0:0,0:0:0:0:
362,143,101203,1,8,0:0:0:0:
240,222,101343,1,0,0:0:0:0:
292,74,101484,2,0,B|313:51|345:43|373:50,1,76.5000014591217,8|0,0:0|0:0,0:0:0:0:
458,184,101765,6,0,L|467:88,2,76.5000014591217,8|0|8,0:0|0:0|0:0,0:0:0:0:
449,295,102193,1,0,0:0:0:0:
326,227,102336,1,8,0:0:0:0:
232,333,102479,1,0,0:0:0:0:
213,178,102622,2,0,B|222:150|242:129|265:116,1,76.5000014591217,8|0,0:0|0:0,0:0:0:0:
236,337,102907,5,8,0:0:0:0:
116,290,103050,1,0,0:0:0:0:
139,159,103193,2,0,B|147:129|144:99|134:73,1,76.5000014591217,8|0,0:0|0:0,0:0:0:0:
35,27,103479,1,8,0:0:0:0:
35,194,103622,1,0,0:0:0:0:
39,31,103765,1,8,0:0:0:0:
103,220,103907,1,0,0:0:0:0:
43,35,104050,5,8,0:0:0:0:
47,39,105050,6,0,B|100:20|158:47|179:101|166:149,1,198.000006042481,4|0,0:0|0:0,0:0:0:0:
144,288,105479,2,0,B|181:318|181:318|232:324,1,99.0000030212403,8|0,0:0|0:0,0:0:0:0:
369,274,105765,1,0,0:0:0:0:
253,179,105907,1,0,0:0:0:0:
369,97,106050,1,8,0:0:0:0:
311,227,106193,1,0,0:0:0:0:
297,63,106336,6,0,B|311:29|346:11|380:17,1,99.0000030212403,0|0,0:0|0:0,0:0:0:0:
315,231,106622,2,0,B|286:266|286:266|242:250|191:260|190:298|109:270,1,198.000006042481,8|0,0:0|0:0,0:0:0:0:
3,197,107050,1,0,0:0:0:0:
151,123,107193,1,8,0:0:0:0:
37,40,107336,6,0,B|26:76|26:76|56:101|56:101|58:141|58:141|72:189|106:215|139:210,1,198.000006042481,4|0,0:0|0:0,0:0:0:0:
245,132,107765,2,0,B|278:105|322:103|356:121,1,99.0000030212403,8|0,0:0|0:0,0:0:0:0:
420,266,108050,1,0,0:0:0:0:
278,201,108193,1,0,0:0:0:0:
343,42,108336,2,0,B|382:47|410:80|410:117,1,99.0000030212403,8|0,0:0|0:0,0:0:0:0:
329,293,108622,6,0,B|303:317|288:348|284:380,2,99.0000030212403,0|0|8,0:0|0:0|0:0,0:0:0:0:
424,270,109050,1,0,0:0:0:0:
373,150,109193,1,0,0:0:0:0:
272,213,109336,1,0,0:0:0:0:
459,180,109479,1,8,0:0:0:0:
294,125,109622,6,0,B|231:113|171:160|169:231|206:275,1,198.000006042481,4|0,0:0|0:0,0:0:0:0:
255,352,110050,1,8,0:0:0:0:
261,361,110336,1,0,0:0:0:0:
266,231,110479,1,0,0:0:0:0:
368,307,110622,2,0,B|415:334|415:334|442:299|442:299|478:279|478:279|460:222,1,198.000006042481,8|0,0:0|0:0,0:0:0:0:
403,129,111050,5,0,0:0:0:0:
300,89,111193,2,0,B|255:91|255:91|233:104|202:109|177:100,1,99.0000030212403,8|0,0:0|0:0,0:0:0:0:
102,63,111479,1,0,0:0:0:0:
208,23,111622,1,0,0:0:0:0:
166,169,111765,1,8,0:0:0:0:
7,71,111907,6,0,B|32:62|58:67|78:83|78:83|178:181,1,198.000006042481,4|0,0:0|0:0,0:0:0:0:
175,294,112336,1,8,0:0:0:0:
171,303,112622,1,0,0:0:0:0:
85,251,112765,1,0,0:0:0:0:
244,227,112907,2,0,B|263:196|264:159|250:128,1,99.0000030212403,8|0,0:0|0:0,0:0:0:0:
167,307,113193,5,0,0:0:0:0:
89,247,113336,1,0,0:0:0:0:
257,319,113479,1,8,0:0:0:0:
257,319,113550,1,0,0:0:0:0:
257,319,113622,1,0,0:0:0:0:
168,226,113765,1,8,0:3:0:0:
320,242,113907,1,4,0:3:0:0:
250,150,114050,1,8,0:0:0:0:
261,323,114193,6,0,B|310:355|374:344|412:298|416:247,1,198.000006042481,4|0,0:0|0:0,0:0:0:0:
428,94,114622,2,0,B|386:85|345:102|320:133,1,99.0000030212403,8|0,0:0|0:0,0:0:0:0:
247,226,114907,1,0,0:0:0:0:
155,130,115050,1,0,0:0:0:0:
271,143,115193,1,8,0:0:0:0:
136,214,115336,1,0,0:0:0:0:
56,113,115479,6,0,B|53:75|76:43|109:31,1,99.0000030212403,0|0,0:0|0:0,0:0:0:0:
140,218,115765,2,0,B|175:263|135:336|54:323|31:264|53:224,1,198.000006042481,8|0,0:0|0:0,0:0:0:0:
159,134,116193,1,0,0:0:0:0:
252,214,116336,1,8,0:0:0:0:
262,336,116479,6,0,B|288:386|357:394|401:350|403:297|378:263,1,198.000006042481,4|0,0:0|0:0,0:0:0:0:
378,140,116907,2,0,B|340:113|295:106|254:117,1,99.0000030212403,8|0,0:0|0:0,0:0:0:0:
144,222,117193,2,0,B|106:249|61:256|20:245,1,99.0000030212403,0|0,0:0|0:0,0:0:0:0:
51,106,117479,1,8,0:0:0:0:
177,49,117622,1,0,0:0:0:0:
252,166,117765,6,0,B|266:203|263:241|248:273,2,99.0000030212403,0|0|8,0:0|0:0|0:0,0:0:0:0:
173,53,118193,1,0,0:0:0:0:
63,204,118336,2,0,B|47:166|54:125|78:95,1,99.0000030212403,0|0,0:0|0:0,0:0:0:0:
176,262,118622,1,8,0:0:0:0:
67,208,118765,6,0,B|83:152|136:116|194:119|236:148,1,198.000006042481,4|0,0:0|0:0,0:0:0:0:
268,265,119193,1,8,0:0:0:0:
266,276,119479,1,0,0:0:0:0:
170,350,119622,1,0,0:0:0:0:
167,229,119765,2,0,B|162:192|162:192|142:178|142:178|119:130|71:115|25:136,1,198.000006042481,8|0,0:0|0:0,0:0:0:0:
19,268,120193,5,0,0:0:0:0:
71,365,120336,2,0,B|87:338|131:340|131:340|173:323,1,99.0000030212403,8|0,0:0|0:0,0:0:0:0:
268,265,120622,1,0,0:0:0:0:
332,343,120765,1,0,0:0:0:0:
229,360,120907,1,8,0:0:0:0:
262,180,121050,6,0,B|294:180|321:194|341:225|341:225|381:214|400:186|387:141,1,198.000006042481,4|0,0:0|0:0,0:0:0:0:
334,37,121479,1,8,0:0:0:0:
326,28,121765,1,0,0:0:0:0:
239,84,121907,1,0,0:0:0:0:
129,46,122050,2,0,B|83:39|83:39|16:57,1,99.0000030212403,8|0,0:0|0:0,0:0:0:0:
244,88,122336,5,0,0:0:0:0:
157,144,122479,1,0,0:0:0:0:
207,9,122622,2,0,B|244:-7|286:6|309:36,1,99.0000030212403,8|0,0:0|0:0,0:0:0:0:
354,154,122907,1,8,0:0:0:0:
230,217,123050,1,0,0:0:0:0:
248,92,123193,1,8,0:0:0:0:
310,258,123336,6,0,B|272:272|258:301|258:301|240:341|178:357,1,161.999995056153,4|0,0:0|0:0,0:0:0:0:
80,256,123765,2,0,B|56:198|70:135|108:92,1,161.999995056153,8|0,0:0|0:0,0:0:0:0:
221,102,124193,1,0,0:0:0:0:
178,219,124336,2,0,B|233:192|299:221|316:280,1,161.999995056153,8|0,0:0|0:0,0:0:0:0:
353,361,124765,5,0,0:0:0:0:
362,217,124907,2,0,B|371:129|397:48,1,161.999995056153,8|0,0:0|0:0,0:0:0:0:
464,141,125336,1,0,0:0:0:0:
478,29,125479,1,8,0:0:0:0:
467,146,125622,6,0,B|406:171|339:147|306:96,1,161.999995056153,4|0,0:0|0:0,0:0:0:0:
250,39,126050,2,0,L|80:62,1,161.999995056153,8|0,0:0|0:0,0:0:0:0:
100,239,126479,1,0,0:0:0:0:
161,175,126622,2,0,B|127:143|77:139|37:162|19:198,1,161.999995056153,8|0,0:0|0:0,0:0:0:0:
0,92,127050,5,0,0:0:0:0:
104,65,127193,2,0,B|169:70|225:104|259:153,1,161.999995056153,8|0,0:0|0:0,0:0:0:0:
285,232,127622,1,0,0:0:0:0:
221,316,127765,1,8,0:0:0:0:
208,215,127907,6,0,B|223:163|245:135|245:135|287:156|335:135,1,161.999995056153,4|0,0:0|0:0,0:0:0:0:
450,109,128336,2,0,L|407:295,1,161.999995056153,8|0,0:0|0:0,0:0:0:0:
389,369,128765,1,0,0:0:0:0:
314,296,128907,2,0,B|262:266|198:277|159:317,1,161.999995056153,8|0,0:0|0:0,0:0:0:0:
75,368,129336,5,0,0:0:0:0:
71,259,129479,2,0,B|74:198|109:147|158:120,1,161.999995056153,8|0,0:0|0:0,0:0:0:0:
254,119,129907,1,0,0:0:0:0:
210,198,130050,1,8,0:0:0:0:
247,27,130193,6,0,B|324:46|324:46|425:103,1,161.999995056153,4|0,0:0|0:0,0:0:0:0:
429,190,130622,2,0,B|369:171|307:191|268:232,1,161.999995056153,8|0,0:0|0:0,0:0:0:0:
207,305,131050,2,0,B|226:326|253:336|279:336,2,80.9999975280763,0|8|0,0:0|0:0|0:0,0:0:0:0:
137,235,131479,5,0,0:0:0:0:
50,199,131622,1,0,0:0:0:0:
40,290,131765,2,0,B|37:324|55:355|82:371,1,80.9999975280763,8|0,0:0|0:0,0:0:0:0:
136,142,132050,1,8,0:0:0:0:
40,100,132193,1,0,0:0:0:0:
118,42,132336,1,8,0:0:0:0:
54,203,132479,6,0,B|75:241|117:259|158:252|186:228,1,144,4|0,0:0|0:0,0:0:0:0:
270,157,132907,1,0,0:0:0:0:
380,24,133193,1,8,0:0:0:0:
188,188,133479,1,0,0:0:0:0:
193,90,133622,1,0,0:0:0:0:
262,24,133765,6,0,B|295:20|326:27|353:41,1,72,0|0,0:0|0:0,0:0:0:0:
368,142,134050,2,0,B|380:190|354:239|307:257|265:248,2,144,0|8|0,0:0|0:0|0:0,0:0:0:0:
269,107,134765,6,0,B|229:140|176:142|134:120,1,144,4|0,0:0|0:0,0:0:0:0:
34,70,135193,1,0,0:0:0:0:
202,22,135479,1,8,0:0:0:0:
100,302,135765,1,0,0:0:0:0:
101,212,135907,1,0,0:0:0:0:
188,249,136050,6,0,B|219:238|242:216|255:189,1,72,0|0,0:0|0:0,0:0:0:0:
274,95,136336,2,0,B|239:91|205:97|176:112,1,72,0|0,0:0|0:0,0:0:0:0:
97,127,136622,1,8,0:0:0:0:
96,306,136765,1,8,0:0:0:0:
98,41,136907,1,8,0:0:0:0:
97,216,137050,6,0,B|158:182|158:182|246:171,1,144,4|0,0:0|0:0,0:0:0:0:
327,79,137479,2,0,L|183:97,2,144,0|8|0,0:0|0:0|0:0,0:0:0:0:
409,137,138193,1,0,0:0:0:0:
413,230,138336,6,0,B|411:263|394:290|368:306,1,72,0|0,0:0|0:0,0:0:0:0:
293,338,138622,1,0,0:0:0:0:
163,106,138907,2,0,B|132:98|102:107|80:127,1,72,8|0,0:0|0:0,0:0:0:0:
42,196,139193,1,0,0:0:0:0:
151,30,139336,6,0,B|194:23|234:49|247:92|235:128,1,144,4|0,0:0|0:0,0:0:0:0:
173,199,139765,2,0,B|163:233|168:267|185:294,1,72,0|0,0:0|0:0,0:0:0:0:
250,362,140050,2,0,B|271:337|302:327|332:332,1,72,8|0,0:0|0:0,0:0:0:0:
174,341,140336,2,0,B|157:360|134:371|111:372,1,72,0|0,0:0|0:0,0:0:0:0:
8,256,140622,5,8,0:0:0:0:
21,231,140693,1,0,0:0:0:0:
41,210,140765,1,8,0:0:0:0:
116,281,140907,1,8,0:0:0:0:
170,179,141050,1,8,0:0:0:0:
265,222,141193,1,8,0:0:0:0:
339,147,141336,1,8,0:3:0:0:
433,182,141479,1,4,0:3:0:0:
359,254,141622,5,4,0:0:0:0:
256,192,141765,12,0,146336,0:0:0:0:
